Runner.(2018).WEBRip.720p.x264-EVO

Encodes in the resolutions 720p, 810p and 1080p, and in irregular HD resolutions, from non-retail (WEB or HDTV) sources, with one or more English audio tracks only. This section does not include animated or TV/documentary films, it does however include black & white movies.
Post Reply
bjorn j
Donator
Donator
Posts: 2710
Joined: Wed Jan 07, 2009 1:49 pm
Has thanked: 34 times
Been thanked: 6067 times

Runner.(2018).WEBRip.720p.x264-EVO

Post by bjorn j » Fri Sep 14, 2018 5:09 pm

Image

http://www.IMDb.com/title/tt7231776/
Genre: Drama

Emptied out in Los Angeles, a heartsick gambler from Kentucky decides to confront demons past after a run-in with a mercurial Hollywood drug dealer.

Code: Select all

Format                                   : Matroska
File size                                : 2.79 GiB
Duration                                 : 1 h 33 min
Overall bit rate                         : 4 269 kb/s

Video
ID                                       : 2
Format                                   : AVC
Format/Info                              : Advanced Video Codec
Format profile                           : [email protected]
Format settings                          : 2 Ref Frames
Format settings, CABAC                   : No
Format settings, RefFrames               : 2 frames
Codec ID                                 : V_MPEG4/ISO/AVC
Duration                                 : 1 h 33 min
Bit rate                                 : 3 992 kb/s
Width                                    : 1 280 pixels
Height                                   : 720 pixels
Display aspect ratio                     : 16:9
Frame rate mode                          : Constant
Frame rate                               : 23.976 FPS
Color space                              : YUV
Chroma subsampling                       : 4:2:0
Bit depth                                : 8 bits
Scan type                                : Progressive
Bits/(Pixel*Frame)                       : 0.181
Stream size                              : 2.61 GiB (94%)
Language                                 : English
Default                                  : Yes
Forced                                   : No
Color range                              : Limited
Color primaries                          : BT.709
Transfer characteristics                 : BT.709
Matrix coefficients                      : BT.709

Audio
ID                                       : 1
Format                                   : AC-3
Format/Info                              : Audio Coding 3
Commercial name                          : Dolby Digital
Codec ID                                 : A_AC3
Duration                                 : 1 h 33 min
Bit rate mode                            : Constant
Bit rate                                 : 192 kb/s
Channel(s)                               : 2 channels
Channel layout                           : L R
Sampling rate                            : 48.0 kHz
Frame rate                               : 31.250 FPS (1536 SPF)
Bit depth                                : 16 bits
Compression mode                         : Lossy
Stream size                              : 129 MiB (4%)
Language                                 : English
Service kind                             : Complete Main
Default                                  : Yes
Forced                                   : No

Menu
00:00:00.000                             : en:1
00:06:31.000                             : en:2
00:12:34.000                             : en:3
00:18:02.000                             : en:4
00:24:14.000                             : en:5
00:30:09.000                             : en:6
00:36:37.000                             : en:7
00:42:54.000                             : en:8
00:48:26.000                             : en:9
00:53:39.000                             : en:10
00:59:11.000                             : en:11
01:08:02.000                             : en:12
01:13:28.000                             : en:13
01:18:30.000                             : en:14
01:24:34.000                             : en:15
01:31:29.000                             : en:16
Image

Runner.2018.720p.WEB-DL.H264.AC3-EVO.mkv  [2.79 Gb]

Post Reply

Return to “Non-Retail HD (720p, 810p, 1080p)”